<?xml version="1.0" standalone="no"?>
<!DOCTYPE svg PUBLIC "-//W3C//DTD SVG 1.1//EN" "http://www.w3.org/Graphics/SVG/1.1/DTD/svg11.dtd" >
<svg xmlns="http://www.w3.org/2000/svg" xmlns:xlink="http://www.w3.org/1999/xlink" version="1.1">
<metadata></metadata>
<defs>
<font id="gotham_htflight" horiz-adv-x="1310" >
<font-face units-per-em="2048" ascent="1638" descent="-410" />
<missing-glyph horiz-adv-x="614" />
<glyph horiz-adv-x="0" />
<glyph horiz-adv-x="682" />
<glyph unicode=" "  horiz-adv-x="614" />
<glyph unicode="&#x09;" horiz-adv-x="614" />
<glyph unicode="&#xa0;" horiz-adv-x="614" />
<glyph unicode="!" horiz-adv-x="516" d="M190 0v174h136v-174h-136zM199 1290v144h118v-144l-30 -915h-58z" />
<glyph unicode="&#x22;" horiz-adv-x="839" d="M139 913l72 521h133v-11l-145 -510h-60zM508 913l72 521h133v-11l-146 -510h-59z" />
<glyph unicode="#" horiz-adv-x="1433" d="M100 383v96h265l84 484h-267v96h283l63 375h99l-64 -375h424l64 375h98l-64 -375h246v-96h-262l-84 -484h264v-96h-280l-66 -383h-98l65 383h-424l-65 -383h-98l65 383h-248zM463 479h424l84 484h-424z" />
<glyph unicode="$" horiz-adv-x="1294" d="M123 221l67 80q99 -93 200.5 -144t221.5 -61v582q-230 51 -332 141t-102 244q0 156 121.5 261.5t308.5 109.5v118h99v-122q114 -9 207 -50t188 -118l-68 -80q-151 134 -332 155v-575q233 -49 338 -140.5t105 -242.5q0 -162 -122 -266.5t-316 -112.5v-201h-99v203 q-265 23 -485 219zM283 1071q0 -54 14 -94t50.5 -76.5t101 -65.5t163.5 -53v559q-147 -3 -238 -80.5t-91 -189.5zM702 92q152 4 245 82.5t93 196.5q0 74 -27.5 124t-102.5 91t-208 71v-565z" />
<glyph unicode="%" horiz-adv-x="1687" d="M113 1081q0 151 89 260t228 109q137 0 225 -108t88 -257q0 -151 -89 -259.5t-228 -108.5q-137 0 -225 107.5t-88 256.5zM219 1085q0 -121 61.5 -200.5t149.5 -79.5q90 0 148.5 79t58.5 197q0 121 -61.5 201t-149.5 80q-90 0 -148.5 -79.5t-58.5 -197.5zM262 0l1053 1434 h110l-1052 -1434h-111zM944 348q0 151 89.5 260t228.5 109q137 0 225 -108t88 -257q0 -151 -89.5 -259.5t-228.5 -108.5q-137 0 -225 107.5t-88 256.5zM1051 352q0 -121 61.5 -200.5t149.5 -79.5q90 0 148 79t58 197q0 121 -61.5 201t-149.5 80q-90 0 -148 -79.5t-58 -197.5 z" />
<glyph unicode="&#x26;" horiz-adv-x="1425" d="M100 379q0 143 96 249.5t275 172.5q-86 95 -123 168.5t-37 160.5q0 140 101.5 234t257.5 94q139 0 234 -91t95 -222q0 -251 -352 -373l377 -387q97 135 186 348l97 -39q-109 -242 -213 -381l264 -272l-84 -70l-248 256q-211 -247 -485 -247q-191 0 -316 111t-125 288z M207 383q0 -133 94.5 -222t241.5 -89q222 0 415 225l-423 438q-164 -56 -246 -149t-82 -203zM418 1135q0 -69 35.5 -132.5t130.5 -164.5q309 99 309 303q0 97 -65 162t-162 65q-108 0 -178 -67t-70 -166z" />
<glyph unicode="'" horiz-adv-x="471" d="M139 913l72 521h133v-11l-145 -510h-60z" />
<glyph unicode="(" horiz-adv-x="880" d="M145 588q0 274 147 497t421 379l43 -67q-504 -310 -504 -809t504 -809l-43 -68q-274 156 -421 379t-147 498z" />
<glyph unicode=")" horiz-adv-x="880" d="M125 -221q504 310 504 809t-504 809l43 67q274 -156 420.5 -378.5t146.5 -497.5t-146.5 -498t-420.5 -379z" />
<glyph unicode="*" horiz-adv-x="880" d="M154 1020l241 115l-241 114l45 76l217 -147l-19 260h86l-18 -260l217 147l45 -76l-242 -114l242 -115l-45 -76l-217 148l18 -261h-86l19 261l-217 -148z" />
<glyph unicode="+" d="M160 672v98h444v440h103v-440h444v-98h-444v-441h-103v441h-444z" />
<glyph unicode="," horiz-adv-x="471" d="M109 -168q66 34 92 72t22 96h-55v174h135v-151q0 -95 -39 -151t-131 -91z" />
<glyph unicode="-" horiz-adv-x="835" d="M143 551v115h549v-115h-549z" />
<glyph unicode="." horiz-adv-x="471" d="M168 0v174h135v-174h-135z" />
<glyph unicode="/" horiz-adv-x="1024" d="M-37 -262l967 1896h100l-967 -1896h-100z" />
<glyph unicode="0" horiz-adv-x="1454" d="M133 715q0 149 42.5 283.5t118 236.5t189 162.5t246.5 60.5t245.5 -59.5t187.5 -161t117 -235.5t42 -283t-42.5 -284t-118 -237t-189 -162.5t-246.5 -60.5t-245.5 60t-187.5 161.5t-117 235.5t-42 283zM244 719q0 -126 34.5 -243t96 -206.5t154 -143.5t200.5 -54t200 53 t152.5 142.5t94.5 205.5t34 242t-34.5 243t-96 206.5t-154 143.5t-200.5 54t-200 -53t-152.5 -142.5t-94.5 -205.5t-34 -242z" />
<glyph unicode="1" horiz-adv-x="686" d="M61 1323l328 121h82v-1444h-104v1333l-277 -94z" />
<glyph unicode="2" horiz-adv-x="1208" d="M98 0v80l535 483q178 162 247.5 269t69.5 221q0 136 -95 221.5t-228 85.5q-131 0 -228.5 -65t-191.5 -201l-80 53q50 76 98 129t108.5 95t136 62.5t167.5 20.5q183 0 304.5 -113t121.5 -282q0 -143 -78.5 -260t-279.5 -299l-439 -398h811v-102h-979z" />
<glyph unicode="3" horiz-adv-x="1249" d="M111 233l82 68q182 -229 446 -229q148 0 251 89.5t103 229.5q0 148 -123.5 231t-322.5 83h-78l-27 59l494 569h-752v101h897v-76l-485 -555q105 -6 194.5 -34t161 -76.5t112 -125t40.5 -172.5q0 -122 -65 -219.5t-171.5 -149t-230.5 -51.5q-168 0 -301 69t-225 189z" />
<glyph unicode="4" horiz-adv-x="1359" d="M98 430l820 1014h96v-1002h233v-92h-233v-350h-103v350h-776zM227 442h684v848z" />
<glyph unicode="5" horiz-adv-x="1239" d="M117 207l76 76q211 -211 430 -211q168 0 276.5 104t108.5 258q0 151 -110.5 246.5t-283.5 95.5q-158 0 -323 -90l-82 53l41 695h805v-103h-711l-35 -536q157 77 318 77q210 0 350.5 -121.5t140.5 -312.5q0 -203 -141 -333t-359 -130q-138 0 -269 64.5t-232 167.5z" />
<glyph unicode="6" horiz-adv-x="1314" d="M131 680q0 217 71 393.5t205 280.5t308 104q117 0 214.5 -42t198.5 -124l-67 -82q-87 76 -171.5 114t-182.5 38q-144 0 -252.5 -94.5t-165 -263.5t-51.5 -386q158 267 448 267q132 0 244.5 -54.5t181 -155.5t68.5 -226q0 -204 -144 -339t-358 -135q-108 0 -203.5 39 t-161.5 105q-94 94 -138 220t-44 341zM281 434q0 -155 116 -258.5t289 -103.5q170 0 276.5 107.5t106.5 264.5q0 150 -109.5 248.5t-279.5 98.5q-86 0 -161.5 -31t-127 -81t-81 -114t-29.5 -131z" />
<glyph unicode="7" horiz-adv-x="1202" d="M139 1331v103h951v-78l-654 -1356h-117l652 1331h-832z" />
<glyph unicode="8" horiz-adv-x="1290" d="M113 385q0 123 88 216.5t229 139.5q-118 48 -193 132t-75 204q0 109 69.5 196.5t179 134t234.5 46.5t234.5 -46.5t179 -134t69.5 -196.5q0 -120 -75 -204t-193 -132q142 -46 230 -139.5t88 -216.5q0 -178 -152.5 -291.5t-380.5 -113.5t-380 113.5t-152 291.5zM223 381 q0 -128 115 -216.5t307 -88.5t307 88.5t115 216.5q0 133 -122.5 221t-299.5 88t-299.5 -88t-122.5 -221zM272 1077q0 -131 108.5 -214t264.5 -83t264.5 83t108.5 214q0 122 -107.5 201.5t-265.5 79.5t-265.5 -79.5t-107.5 -201.5z" />
<glyph unicode="9" horiz-adv-x="1314" d="M135 975q0 99 37 187.5t102.5 154t160 103.5t204.5 38q220 0 365 -145q91 -91 135.5 -222t44.5 -339q0 -223 -76 -401t-209.5 -277t-298.5 -99q-124 0 -227.5 47t-204.5 132l68 82q182 -164 366 -164q143 0 254 94.5t170 263.5t51 381q-154 -276 -446 -276 q-215 0 -355.5 126.5t-140.5 313.5zM246 979q0 -152 109.5 -251t279.5 -99q175 0 287 111t112 255q0 155 -115 261t-292 106q-171 0 -276 -113t-105 -270z" />
<glyph unicode=":" horiz-adv-x="491" d="M178 0v174h135v-174h-135zM178 870v174h135v-174h-135z" />
<glyph unicode=";" horiz-adv-x="491" d="M119 -168q66 34 92 72t22 96h-55v174h135v-151q0 -95 -39 -151t-131 -91zM178 870v174h135v-174h-135z" />
<glyph unicode="&#x3c;" d="M150 680v82l950 493v-110l-826 -422l826 -426v-111z" />
<glyph unicode="=" d="M190 438v105h930v-105h-930zM190 899v105h930v-105h-930z" />
<glyph unicode="&#x3e;" d="M211 186v111l825 422l-825 426v110l950 -493v-82z" />
<glyph unicode="?" horiz-adv-x="1093" d="M70 1208q62 77 126.5 128.5t153 83.5t193.5 32q198 0 321 -115.5t123 -285.5q0 -93 -34 -169t-94 -126.5t-137.5 -82t-168.5 -42.5l-18 -256h-66l-27 332l11 10q201 4 313.5 92t112.5 238q0 131 -93.5 221t-246.5 90q-225 0 -396 -211zM434 0v174h135v-174h-135z" />
<glyph unicode="@" horiz-adv-x="2007" d="M109 561q0 181 70 346t189.5 286t286 193t351.5 72q184 0 350.5 -66.5t284.5 -177t187.5 -259t69.5 -308.5q0 -126 -33 -224.5t-88 -156t-119 -87t-132 -29.5q-106 0 -179 50.5t-100 139.5q-72 -89 -155 -139.5t-195 -50.5q-152 0 -257 102t-105 262q0 106 42.5 202.5 t110 163t153 105.5t171.5 39q114 0 189 -51.5t116 -130.5l29 153l98 -12l-76 -432q-18 -108 -18 -148q0 -87 48 -133.5t136 -46.5q56 0 107 25t94 74.5t68.5 133.5t25.5 191q0 140 -63 275t-171 239t-263 168t-326 64q-174 0 -328.5 -66t-263.5 -178t-172.5 -265.5 t-63.5 -322.5q0 -170 63 -322.5t173 -263.5t268 -176t340 -65q149 0 269 34t243 105l31 -51q-253 -154 -543 -154q-129 0 -249.5 32.5t-220.5 90.5t-183 140.5t-140 180.5t-88.5 213t-31.5 236zM641 522q0 -128 75 -202t197 -74q94 0 180 56.5t137.5 148t51.5 190.5 q0 122 -76.5 203.5t-193.5 81.5q-144 0 -257.5 -118.5t-113.5 -285.5z" />
<glyph unicode="A" horiz-adv-x="1617" d="M90 0l668 1444h102l668 -1444h-117l-182 401h-846l-182 -401h-111zM428 498h756l-377 829z" />
<glyph unicode="B" horiz-adv-x="1478" d="M213 0v1434h592q210 0 337.5 -96t127.5 -257v-4q0 -70 -21 -128t-58 -98.5t-77 -67.5t-88 -46q68 -18 123.5 -45t102 -67.5t72.5 -99t26 -130.5v-4q0 -179 -140.5 -285t-373.5 -106h-623zM319 98h521q185 0 293 79t108 214v4q0 133 -112.5 206t-323.5 73h-486v-576z M319 772h474q165 0 266.5 78t101.5 217v4q0 120 -94.5 192t-263.5 72h-484v-563z" />
<glyph unicode="C" horiz-adv-x="1511" d="M150 713v4q0 201 91.5 370.5t257 270t367.5 100.5q179 0 306.5 -58t250.5 -171l-75 -78q-104 101 -219 156t-265 55q-127 0 -239 -50t-192 -135.5t-126.5 -204t-46.5 -251.5v-4q0 -134 47 -253.5t127.5 -205.5t193 -136t238.5 -50q149 0 264 55t230 168l72 -70 q-125 -123 -258 -186.5t-312 -63.5q-151 0 -284 57.5t-226.5 156.5t-147.5 235t-54 289z" />
<glyph unicode="D" horiz-adv-x="1601" d="M213 0v1434h477q166 0 309 -55t242 -150t155 -226.5t56 -281.5v-4q0 -150 -56 -282t-155 -228t-242 -151.5t-309 -55.5h-477zM319 98h371q146 0 269.5 48t206.5 131t129 195.5t46 240.5v4q0 127 -46 240t-129 196.5t-206.5 132.5t-269.5 49h-371v-1237z" />
<glyph unicode="E" horiz-adv-x="1372" d="M213 0v1434h1020v-99h-914v-563h822v-98h-822v-576h924v-98h-1030z" />
<glyph unicode="F" horiz-adv-x="1343" d="M213 0v1434h1010v-99h-904v-587h811v-99h-811v-649h-106z" />
<glyph unicode="G" horiz-adv-x="1605" d="M150 713v4q0 145 51 279t141.5 236.5t225 164t290.5 61.5q167 0 288.5 -46.5t235.5 -141.5l-69 -80q-96 83 -203 127.5t-258 44.5q-170 0 -306.5 -88t-211 -234.5t-74.5 -318.5v-4q0 -139 42.5 -257.5t120.5 -205t194 -135.5t257 -49q130 0 252 46t205 117v412h-479v98 h582v-553q-106 -94 -253 -154.5t-311 -60.5q-166 0 -303 58.5t-227.5 159.5t-140 235t-49.5 285z" />
<glyph unicode="H" horiz-adv-x="1556" d="M213 0v1434h106v-664h918v664h106v-1434h-106v672h-918v-672h-106z" />
<glyph unicode="I" horiz-adv-x="561" d="M227 0v1434h107v-1434h-107z" />
<glyph unicode="J" horiz-adv-x="1124" d="M76 248l88 55q69 -117 149.5 -172t202.5 -55q137 0 224 100.5t87 282.5v975h107v-967q0 -233 -119 -360t-305 -127q-285 0 -434 268z" />
<glyph unicode="K" horiz-adv-x="1464" d="M213 0v1434h106v-942l914 942h145l-626 -633l653 -801h-139l-590 725l-357 -360v-365h-106z" />
<glyph unicode="L" horiz-adv-x="1267" d="M213 0v1434h106v-1336h842v-98h-948z" />
<glyph unicode="M" horiz-adv-x="1777" d="M213 0v1434h100l576 -848l575 848h101v-1434h-107v1245l-567 -825h-8l-568 825v-1245h-102z" />
<glyph unicode="N" horiz-adv-x="1617" d="M213 0v1434h100l990 -1248v1248h102v-1434h-80l-1010 1274v-1274h-102z" />
<glyph unicode="O" horiz-adv-x="1740" d="M150 713v4q0 146 52.5 280.5t145 236.5t229.5 163t295 61q127 0 241 -39t200 -108t149.5 -161.5t96 -202t32.5 -226.5q2 -2 0 -4q0 -146 -52.5 -280.5t-145.5 -237t-230 -163.5t-295 -61t-294.5 60.5t-228 162t-143.5 235.5t-52 280zM260 717q0 -176 78.5 -323.5 t219.5 -234.5t314 -87q130 0 244 50.5t193.5 137t125.5 204.5t46 249v4q0 131 -46.5 250t-127 205.5t-195 138t-244.5 51.5q-173 0 -313 -86t-217.5 -232.5t-77.5 -322.5v-4z" />
<glyph unicode="P" horiz-adv-x="1368" d="M213 0v1434h520q240 0 386.5 -117.5t146.5 -321.5v-4q0 -110 -45 -198t-122.5 -143.5t-177.5 -85t-214 -29.5h-388v-535h-106zM319 633h394q200 0 323 96.5t123 255.5v4q0 166 -118 256t-316 90h-406v-702z" />
<glyph unicode="Q" horiz-adv-x="1740" d="M150 713v4q0 146 52.5 280.5t145 236.5t229.5 163t295 61q127 0 241 -39t200 -108t149.5 -161.5t96 -202t32.5 -226.5q2 -2 0 -4q0 -143 -48.5 -274t-139.5 -232l205 -172l-76 -82l-201 182q-195 -164 -463 -164q-158 0 -294.5 60.5t-228 162t-143.5 235.5t-52 280z M260 717q0 -176 78.5 -323.5t219.5 -234.5t314 -87q220 0 381 135l-278 237l76 84l274 -249q156 183 156 434v4q0 131 -46.5 250t-127 205.5t-195 138t-244.5 51.5q-173 0 -313 -86t-217.5 -232.5t-77.5 -322.5v-4z" />
<glyph unicode="R" horiz-adv-x="1480" d="M213 0v1434h602q230 0 371 -113.5t141 -294.5v-4q0 -174 -115 -279t-305 -131l473 -612h-135l-457 594h-469v-594h-106zM319 690h484q184 0 301 88t117 240v4q0 146 -109 229.5t-303 83.5h-490v-645z" />
<glyph unicode="S" d="M121 209l69 80q122 -112 241 -162.5t274 -50.5q160 0 261 80t101 204v5q0 80 -32.5 133t-122 96t-250.5 76q-258 53 -371 146.5t-113 256.5v4q0 161 131 269t330 108q152 0 265 -41.5t226 -132.5l-67 -84q-99 86 -202.5 124t-225.5 38q-155 0 -252.5 -78t-97.5 -193v-4 q0 -81 32.5 -134.5t125 -99t259.5 -79.5q249 -51 360.5 -144.5t111.5 -250.5v-4q0 -172 -134 -281.5t-342 -109.5q-169 0 -307.5 56t-269.5 173z" />
<glyph unicode="T" horiz-adv-x="1327" d="M111 1335v99h1106v-99h-500v-1335h-107v1335h-499z" />
<glyph unicode="U" horiz-adv-x="1556" d="M190 596v838h107v-828q0 -252 128.5 -392t356.5 -140q223 0 350.5 134t127.5 388v838h106v-826q0 -302 -160 -466.5t-428 -164.5q-129 0 -237 41t-186 118t-121.5 194.5t-43.5 265.5z" />
<glyph unicode="V" horiz-adv-x="1536" d="M90 1434h119l561 -1319l563 1319h113l-631 -1444h-94z" />
<glyph unicode="W" horiz-adv-x="2256" d="M102 1434h119l451 -1276l420 1280h82l419 -1280l451 1276h110l-520 -1444h-86l-420 1245l-419 -1245h-86z" />
<glyph unicode="X" horiz-adv-x="1478" d="M104 0l572 731l-551 703h127l489 -631l488 631h125l-549 -701l569 -733h-127l-510 662l-508 -662h-125z" />
<glyph unicode="Y" horiz-adv-x="1466" d="M66 1434h133l536 -770l539 770h127l-615 -865v-569h-106v567z" />
<glyph unicode="Z" horiz-adv-x="1409" d="M139 0v59l981 1278h-946v97h1098v-60l-981 -1278h981v-96h-1133z" />
<glyph unicode="[" horiz-adv-x="880" d="M201 -266v1700h559v-78h-465v-1544h465v-78h-559z" />
<glyph unicode="\" horiz-adv-x="1024" d="M-6 1634h100l967 -1896h-100z" />
<glyph unicode="]" horiz-adv-x="880" d="M121 -188h465v1544h-465v78h559v-1700h-559v78z" />
<glyph unicode="^" horiz-adv-x="1024" d="M143 1010l324 430h90l324 -430h-109l-262 342l-262 -342h-105z" />
<glyph unicode="_" horiz-adv-x="1228" d="M-4 -238h1237v-90h-1237v90z" />
<glyph unicode="`" horiz-adv-x="1024" d="M322 1430l124 61l181 -272h-86z" />
<glyph unicode="a" horiz-adv-x="1175" d="M104 303v4q0 160 125.5 250t331.5 90q179 0 346 -45v45q0 156 -90.5 238t-253.5 82q-162 0 -327 -84l-37 88q195 90 370 90q205 0 321 -105.5t116 -304.5v-651h-99v174q-62 -86 -162 -142.5t-237 -56.5q-75 0 -146 21.5t-129 61t-93.5 103.5t-35.5 142zM211 309 q0 -110 88.5 -174.5t214.5 -64.5q163 0 279 90.5t116 230.5v119q-180 47 -354 47q-163 0 -253.5 -66.5t-90.5 -177.5v-4z" />
<glyph unicode="b" horiz-adv-x="1351" d="M190 0v1495h101v-684q169 258 430 258q95 0 185.5 -38t162.5 -105.5t116 -172t44 -227.5v-4q0 -123 -44 -228t-116 -173.5t-162.5 -107t-185.5 -38.5q-266 0 -430 250v-225h-101zM285 520q0 -129 61.5 -233.5t158.5 -159.5t206 -55q176 0 292.5 120.5t116.5 325.5v4 q0 100 -33 185.5t-89 143t-130.5 90t-156.5 32.5q-81 0 -158 -33t-136.5 -91t-95.5 -143t-36 -182v-4z" />
<glyph unicode="c" horiz-adv-x="1169" d="M119 518v4q0 145 70 270.5t193 201t269 75.5q135 0 233.5 -51.5t184.5 -140.5l-72 -74q-80 82 -160.5 127t-187.5 45q-178 0 -300 -130.5t-122 -318.5v-4q0 -189 125 -320.5t305 -131.5q195 0 351 174l69 -62q-87 -99 -188.5 -153t-237.5 -54q-147 0 -270 74.5 t-192.5 199t-69.5 269.5z" />
<glyph unicode="d" horiz-adv-x="1351" d="M123 518v4q0 123 44 228t116 173.5t162.5 107t185.5 38.5q266 0 430 -250v676h100v-1495h-100v233q-169 -258 -430 -258q-95 0 -185.5 38t-162.5 105.5t-116 172t-44 227.5zM231 522q0 -100 33.5 -185.5t89.5 -143t130.5 -89.5t156.5 -32q109 0 206 55.5t158.5 160 t61.5 232.5v4q0 129 -61.5 233.5t-158.5 160t-206 55.5q-176 0 -293 -121t-117 -326v-4z" />
<glyph unicode="e" horiz-adv-x="1196" d="M119 520v4q0 112 38 212.5t103 173.5t157.5 116t196.5 43q143 0 253.5 -72.5t168.5 -196.5t58 -278v-4q0 -21 -2 -37h-867q13 -188 131.5 -299.5t278.5 -111.5q206 0 358 163l70 -61q-88 -95 -189.5 -146t-242.5 -51q-102 0 -195.5 40t-163.5 110t-111.5 173t-41.5 222z M225 571h760q-5 81 -31 152.5t-71 129t-115.5 91t-157.5 33.5q-154 0 -262.5 -116t-122.5 -290z" />
<glyph unicode="f" horiz-adv-x="741" d="M100 952v92h152v103q0 169 81.5 261.5t229.5 92.5q85 0 156 -24v-95q-89 27 -156 27q-107 0 -159 -65t-52 -199v-101h365v-92h-365v-952h-100v952h-152z" />
<glyph unicode="g" horiz-adv-x="1351" d="M123 569v4q0 109 43 203.5t113.5 157.5t160.5 99t185 36q146 0 255 -65t181 -168v208h100v-882q0 -232 -141.5 -363t-370.5 -131q-263 0 -479 160l59 82q193 -148 422 -148q186 0 298 105t112 301v151q-168 -241 -436 -241q-95 0 -185 35.5t-160.5 97.5t-113.5 155.5 t-43 202.5zM231 573q0 -115 56 -207t148.5 -142t199.5 -50q81 0 159 29t138.5 80t97.5 126.5t37 161.5v4q0 116 -63 209t-161 141t-208 48q-170 0 -287 -108.5t-117 -286.5v-5z" />
<glyph unicode="h" horiz-adv-x="1255" d="M190 0v1495h101v-645q125 219 377 219q194 0 305.5 -119t111.5 -311v-639h-100v621q0 163 -88 259.5t-244 96.5q-155 0 -258.5 -105.5t-103.5 -267.5v-604h-101z" />
<glyph unicode="i" horiz-adv-x="509" d="M193 1317v137h124v-137h-124zM205 0v1044h100v-1044h-100z" />
<glyph unicode="j" horiz-adv-x="509" d="M-2 -238q38 -6 82 -6q57 0 91 37.5t34 108.5v1142h100v-1136q0 -120 -59.5 -181t-163.5 -61q-43 0 -84 8v88zM193 1317v137h124v-137h-124z" />
<glyph unicode="k" horiz-adv-x="1146" d="M190 0v1495h101v-1120l647 669h133l-457 -462l471 -582h-127l-413 510l-254 -256v-254h-101z" />
<glyph unicode="l" horiz-adv-x="509" d="M205 0v1495h100v-1495h-100z" />
<glyph unicode="m" horiz-adv-x="1947" d="M190 0v1044h101v-186q29 46 58 80t70.5 65.5t97 48.5t122.5 17q128 0 216.5 -62.5t135.5 -162.5q131 225 377 225q185 0 293 -119t108 -317v-633h-100v621q0 168 -82 262t-227 94q-138 0 -234 -100t-96 -269v-608h-100v627q0 162 -82.5 256t-222.5 94t-237 -108.5 t-97 -266.5v-602h-101z" />
<glyph unicode="n" horiz-adv-x="1255" d="M190 0v1044h101v-194q125 219 377 219q194 0 305.5 -119t111.5 -311v-639h-100v621q0 163 -88 259.5t-244 96.5q-155 0 -258.5 -105.5t-103.5 -267.5v-604h-101z" />
<glyph unicode="o" d="M119 518v4q0 109 41 209t111 174.5t171 119t215 44.5q151 0 274.5 -74.5t192 -198.5t68.5 -270v-4q0 -146 -69 -271t-193.5 -200.5t-276.5 -75.5q-113 0 -213 44t-170 117.5t-110.5 173t-40.5 208.5zM227 522q0 -189 124.5 -320.5t305.5 -131.5q121 0 219.5 60.5 t152.5 163t54 224.5v4q0 190 -124.5 321.5t-305.5 131.5q-183 0 -304.5 -131t-121.5 -318v-4z" />
<glyph unicode="p" horiz-adv-x="1351" d="M190 -328v1372h101v-233q169 258 430 258q95 0 185.5 -38t162.5 -105.5t116 -172t44 -227.5v-4q0 -123 -44 -228t-116 -173.5t-162.5 -107t-185.5 -38.5q-266 0 -430 250v-553h-101zM285 520q0 -129 61.5 -233.5t158.5 -159.5t206 -55q176 0 292.5 120.5t116.5 325.5v4 q0 100 -33 185.5t-89 143t-130.5 90t-156.5 32.5q-81 0 -158 -33t-136.5 -91t-95.5 -143t-36 -182v-4z" />
<glyph unicode="q" horiz-adv-x="1351" d="M123 518v4q0 123 44 228t116 173.5t162.5 107t185.5 38.5q266 0 430 -250v225h100v-1372h-100v561q-169 -258 -430 -258q-95 0 -185.5 38t-162.5 105.5t-116 172t-44 227.5zM231 522q0 -100 33.5 -185.5t89.5 -143t130.5 -89.5t156.5 -32q109 0 206 55.5t158.5 160 t61.5 232.5v4q0 129 -61.5 233.5t-158.5 160t-206 55.5q-176 0 -293 -121t-117 -326v-4z" />
<glyph unicode="r" horiz-adv-x="819" d="M190 0v1044h101v-296q64 144 188 232q116 82 256 81h19v-111h-11q-92 0 -173 -34.5t-143.5 -98.5t-99 -164.5t-36.5 -224.5v-428h-101z" />
<glyph unicode="s" horiz-adv-x="1017" d="M100 131l60 80q179 -137 375 -137q108 0 179.5 54.5t71.5 143.5v4q0 36 -16 65.5t-38.5 49.5t-62.5 38.5t-73.5 29.5t-85.5 26q-160 46 -224 81q-134 74 -134 206v4q0 126 96 207.5t248 81.5q93 0 192 -31t178 -84l-53 -84q-160 105 -321 105q-106 0 -172 -52t-66 -131 v-4q0 -28 10 -52t33 -43t45 -33t62 -28.5t66.5 -23t74.5 -22.5q49 -14 84.5 -25.5t79 -30t72.5 -40t55.5 -50t39.5 -65.5t13 -82v-4q0 -137 -103.5 -221t-257.5 -84q-113 0 -228.5 41.5t-199.5 109.5z" />
<glyph unicode="t" horiz-adv-x="819" d="M94 952v92h152v334h100v-334h367v-92h-367v-673q0 -203 209 -203q73 0 154 37v-95q-76 -36 -170 -36q-130 0 -211.5 72t-81.5 214v684h-152z" />
<glyph unicode="u" horiz-adv-x="1255" d="M170 406v638h100v-620q0 -163 88 -259.5t244 -96.5q155 0 259 105t104 267v604h100v-1044h-100v195q-125 -220 -377 -220q-194 0 -306 119.5t-112 311.5z" />
<glyph unicode="v" horiz-adv-x="1191" d="M84 1044h117l395 -931l399 931h113l-469 -1052h-86z" />
<glyph unicode="w" horiz-adv-x="1763" d="M100 1044h113l315 -917l316 922h80l315 -922l315 917h109l-383 -1052h-86l-311 895l-314 -895h-86z" />
<glyph unicode="x" horiz-adv-x="1167" d="M92 0l428 532l-411 512h124l353 -442l352 442h121l-412 -509l428 -535h-125l-368 465l-369 -465h-121z" />
<glyph unicode="y" horiz-adv-x="1204" d="M80 1044h117l434 -933l377 933h110l-452 -1081q-67 -160 -150 -228.5t-199 -68.5q-104 0 -206 45l34 88q79 -39 179 -39q83 0 141.5 55.5t116.5 190.5z" />
<glyph unicode="z" horiz-adv-x="1134" d="M119 0v57l753 897h-725v90h875v-57l-754 -897h754v-90h-903z" />
<glyph unicode="{" horiz-adv-x="983" d="M121 549v78h53q137 0 191.5 65.5t54.5 194.5v162q0 87 16.5 146.5t61.5 113.5t132 91.5t222 63.5l14 -65q-79 -20 -134.5 -39.5t-94.5 -44.5t-61.5 -49.5t-35 -61.5t-16.5 -74t-4 -94v-153q0 -129 -54 -196t-159 -99q110 -36 161.5 -100.5t51.5 -194.5v-154 q0 -57 4 -93.5t16.5 -74t35 -61.5t61.5 -49t94.5 -44.5t134.5 -39.5l-14 -66q-109 21 -186 50.5t-124.5 64.5t-75 83.5t-37 98.5t-9.5 119v162q0 129 -54.5 194.5t-191.5 65.5h-53z" />
<glyph unicode="|" horiz-adv-x="585" d="M248 -262v1896h90v-1896h-90z" />
<glyph unicode="}" horiz-adv-x="983" d="M117 -223q79 20 134.5 39.5t94.5 44.5t61.5 49t35 61.5t16.5 74t4 93.5v154q0 129 54 196t159 99q-110 36 -161.5 100.5t-51.5 194.5v153q0 57 -4 94t-16.5 74t-35 61.5t-61.5 49.5t-94.5 44.5t-134.5 39.5l14 65q135 -26 222 -63.5t132 -91.5t61.5 -113.5t16.5 -146.5 v-162q0 -129 54.5 -194.5t191.5 -65.5h53v-78h-53q-137 0 -191.5 -65.5t-54.5 -194.5v-162q0 -69 -9.5 -119t-37 -98.5t-75 -83.5t-124.5 -64.5t-186 -50.5z" />
<glyph unicode="~" horiz-adv-x="942" d="M168 514q28 107 68 149t104 42q40 0 134 -42t128 -42q36 0 58 21.5t45 80.5l69 -18q-28 -107 -68 -149t-104 -42q-40 0 -134 42t-128 42q-36 0 -57 -21.5t-45 -80.5z" />
<glyph unicode="&#xa1;" horiz-adv-x="516" d="M190 1260v174h136v-174h-136zM199 0v143l30 916h58l30 -916v-143h-118z" />
<glyph unicode="&#xa2;" horiz-adv-x="1189" d="M127 725q0 146 70 272t193 201.5t269 75.5h31l33 172h102l-37 -186q87 -19 155 -64t134 -115l-71 -73q-62 62 -118 101.5t-124 57.5l-170 -886q40 -7 72 -7q193 0 350 175l69 -62q-87 -99 -188.5 -153t-237.5 -54q-39 0 -79 6l-39 -198h-103l45 223q-159 56 -257.5 198 t-98.5 316zM236 729q0 -144 75 -258t197 -166l168 875h-19q-178 0 -299.5 -130.5t-121.5 -320.5z" />
<glyph unicode="&#xa3;" horiz-adv-x="1318" d="M143 0v51l176 41v533h-176v98h176v242q0 219 118.5 354t322.5 135q149 0 250 -57t180 -160l-82 -63q-72 90 -151.5 137t-198.5 47q-159 0 -246.5 -104.5t-87.5 -286.5v-244h610v-98h-610v-529h766v-96h-1047z" />
<glyph unicode="&#xa4;" horiz-adv-x="1474" d="M121 502v98h170q-6 56 -6 115q0 62 10 137h-174v98h192q57 224 206 366t343 142q87 0 162 -21t134.5 -61.5t105.5 -90t90 -114.5l-82 -55q-59 85 -114 136.5t-130 81.5t-170 30q-152 0 -270 -114t-170 -300h581v-98h-600q-10 -72 -10 -133t6 -119h604v-98h-585 q48 -195 174 -313.5t295 -118.5q126 0 221 67.5t176 194.5l78 -51q-94 -144 -208.5 -225t-272.5 -81q-210 0 -364.5 144.5t-207.5 382.5h-184z" />
<glyph unicode="&#xa5;" horiz-adv-x="1404" d="M66 1434h129l510 -764l512 764h122l-551 -793h402v-92h-436v-201h436v-92h-436v-256h-103v256h-436v92h436v201h-436v92h399z" />
<glyph unicode="&#xa7;" horiz-adv-x="1294" d="M133 745q0 92 82 154.5t221 79.5q-82 37 -129 92t-47 125q0 117 99 187.5t262 70.5q133 0 255 -52.5t209 -141.5l-77 -74q-75 76 -177.5 122t-220.5 46q-117 0 -177 -44.5t-60 -115.5q0 -69 84 -119t291 -100q227 -55 320 -120t93 -167q0 -91 -82 -153.5t-221 -79.5 q82 -37 129 -92t47 -125q0 -117 -98.5 -187.5t-261.5 -70.5q-133 0 -255.5 52.5t-209.5 141.5l78 74q75 -76 177 -122t220 -46q117 0 177.5 44.5t60.5 115.5q0 69 -84 119t-291 100q-228 55 -321 119.5t-93 166.5zM240 754q0 -62 70 -110t251 -93q129 -33 230 -33 q116 0 190 48t74 114q0 62 -70.5 110t-251.5 93q-128 32 -229 32q-116 0 -190 -48t-74 -113z" />
<glyph unicode="&#xa8;" horiz-adv-x="1024" d="M274 1219v163h142v-163h-142zM608 1219v163h142v-163h-142z" />
<glyph unicode="&#xa9;" horiz-adv-x="1699" d="M109 715q0 150 58 287t157 237t237 159.5t291 59.5t290.5 -59t235.5 -158t155.5 -235.5t57.5 -286.5q0 -200 -98 -371t-269.5 -272t-375.5 -101t-374.5 100t-267.5 270t-97 370zM170 715q0 -186 88 -342.5t244 -248t346 -91.5q143 0 270 54.5t217 147t142.5 219 t52.5 265.5q0 186 -88 342.5t-244 248t-346 91.5q-143 0 -270 -54.5t-217 -147t-142.5 -219t-52.5 -265.5zM485 727q0 160 108 274.5t267 114.5q92 0 158 -32t131 -93l-62 -63q-110 106 -229 106q-123 0 -203 -88.5t-80 -216.5q0 -126 83.5 -216.5t201.5 -90.5 q71 0 124.5 25.5t111.5 80.5l57 -57q-67 -65 -134.5 -98t-160.5 -33q-157 0 -265 113t-108 274z" />
<glyph unicode="&#xaa;" horiz-adv-x="798" d="M127 600v82h516v-82h-516zM133 1028q0 91 69 142t185 51q80 0 170 -23v10q0 77 -45.5 117.5t-124.5 40.5q-77 0 -180 -49l-27 69q115 54 211 54q114 0 178 -59t64 -171v-356h-76v84q-73 -96 -201 -96q-89 0 -156 49t-67 137zM215 1032q0 -55 42 -86t103 -31 q80 0 138.5 44.5t58.5 113.5v55q-77 23 -174 23q-80 0 -124 -32.5t-44 -86.5z" />
<glyph unicode="&#xab;" horiz-adv-x="1054" d="M104 514v16l328 428l76 -49l-281 -385l281 -389l-76 -49zM522 514v16l328 428l76 -49l-281 -385l281 -389l-76 -49z" />
<glyph unicode="&#xad;" horiz-adv-x="835" d="M143 551v115h549v-115h-549z" />
<glyph unicode="&#xae;" horiz-adv-x="1699" d="M109 715q0 150 58 287t157 237t237 159.5t291 59.5t290.5 -59t235.5 -158t155.5 -235.5t57.5 -286.5q0 -200 -98 -371t-269.5 -272t-375.5 -101t-374.5 100t-267.5 270t-97 370zM170 715q0 -186 88 -342.5t244 -248t346 -91.5q143 0 270 54.5t217 147t142.5 219 t52.5 265.5q0 186 -88 342.5t-244 248t-346 91.5q-143 0 -270 -54.5t-217 -147t-142.5 -219t-52.5 -265.5zM565 362v750h336q122 0 199.5 -59.5t77.5 -157.5q0 -89 -55 -144t-150 -73l250 -316h-115l-238 302h-217v-302h-88zM653 745h234q88 0 143 38t55 108q0 64 -50 100.5 t-138 36.5h-244v-283z" />
<glyph unicode="&#xaf;" horiz-adv-x="1024" d="M205 1229v108h614v-108h-614z" />
<glyph unicode="&#xb0;" horiz-adv-x="921" d="M152 1145q0 121 93.5 211t215.5 90t215.5 -90t93.5 -211t-93.5 -211t-215.5 -90t-215.5 90t-93.5 211zM254 1145q0 -85 59.5 -148t147.5 -63t147.5 63t59.5 148t-59.5 148t-147.5 63t-147.5 -63t-59.5 -148z" />
<glyph unicode="&#xb1;" horiz-adv-x="1228" d="M92 240l86 63q174 -231 447 -231q159 0 261.5 84.5t102.5 220.5q0 140 -112 219.5t-312 79.5h-143v94h145q167 0 275 81t108 220q0 127 -95 209t-249 82q-127 0 -223.5 -55t-175.5 -164l-82 49q181 266 485 266q195 0 323 -109t128 -274q0 -71 -23 -130t-64 -99.5 t-86.5 -67.5t-99.5 -45q142 -41 227 -130t85 -224q0 -170 -135.5 -287t-343.5 -117q-165 0 -302.5 72.5t-226.5 192.5z" />
<glyph unicode="&#xb4;" horiz-adv-x="1024" d="M397 1219l181 272l124 -61l-219 -211h-86z" />
<glyph unicode="&#xb5;" horiz-adv-x="1740" d="M150 715q0 147 52.5 282t145 237t229.5 163t295 61t294.5 -60.5t228.5 -162t144 -235.5t52 -281q0 -175 -72.5 -330.5t-203.5 -259.5l348 -328v-8h-154l-290 268q-159 -86 -351 -86q-158 0 -294.5 60.5t-228 162t-143.5 236t-52 281.5zM260 719q0 -177 78.5 -325 t219.5 -235t314 -87q130 0 244 50.5t193.5 137t125.5 205t46 250.5t-46.5 251t-127 206t-195 138.5t-244.5 51.5q-173 0 -313 -86.5t-217.5 -233t-77.5 -323.5z" />
<glyph unicode="&#xb6;" horiz-adv-x="983" d="M109 1001q0 200 146.5 316.5t383.5 116.5h152v-1434h-109v567h-12q-159 0 -285 49.5t-201 149t-75 235.5z" />
<glyph unicode="&#xb7;" horiz-adv-x="471" d="M168 522v174h135v-174h-135z" />
<glyph unicode="&#xb8;" horiz-adv-x="1024" d="M332 -250l184 270h88l-160 -323z" />
<glyph unicode="&#xba;" horiz-adv-x="798" d="M104 600v82h590v-82h-590zM104 1141q0 125 85 214t212 89q126 0 209.5 -87.5t83.5 -211.5q0 -125 -85 -214t-212 -89q-126 0 -209.5 87.5t-83.5 211.5zM193 1145q0 -94 59.5 -158.5t148.5 -64.5t147 63.5t58 155.5q0 94 -60 158.5t-149 64.5t-146.5 -63.5t-57.5 -155.5z " />
<glyph unicode="&#xbb;" horiz-adv-x="1054" d="M129 135l281 385l-281 389l76 49l327 -428v-16l-327 -428zM547 135l280 385l-280 389l76 49l327 -428v-16l-327 -428z" />
<glyph unicode="&#xbf;" horiz-adv-x="1093" d="M106 383q0 93 34 169t94.5 126.5t138 82t168.5 42.5l18 256h66l26 -332l-10 -10q-201 -4 -313.5 -92t-112.5 -238q0 -131 93.5 -221t246.5 -90q224 0 395 211l74 -62q-95 -118 -207 -180.5t-266 -62.5q-198 0 -321.5 115.5t-123.5 285.5zM524 1260v174h135v-174h-135z " />
<glyph unicode="&#xc0;" horiz-adv-x="1617" d="M90 0l668 1444h102l668 -1444h-117l-182 401h-846l-182 -401h-111zM428 498h756l-377 829zM539 1778l125 61l180 -272h-86z" />
<glyph unicode="&#xc1;" horiz-adv-x="1617" d="M90 0l668 1444h102l668 -1444h-117l-182 401h-846l-182 -401h-111zM428 498h756l-377 829zM774 1567l180 272l125 -61l-219 -211h-86z" />
<glyph unicode="&#xc2;" horiz-adv-x="1617" d="M90 0l668 1444h102l668 -1444h-117l-182 401h-846l-182 -401h-111zM428 498h756l-377 829zM563 1556l205 250h82l205 -250h-97l-151 140l-152 -140h-92z" />
<glyph unicode="&#xc3;" horiz-adv-x="1617" d="M90 0l668 1444h102l668 -1444h-117l-182 401h-846l-182 -401h-111zM428 498h756l-377 829zM506 1567q28 107 68 148.5t104 41.5q40 0 134 -42t128 -42q36 0 57 22t45 81l70 -19q-28 -107 -68 -148.5t-104 -41.5q-40 0 -134 42t-128 42q-36 0 -57.5 -22t-45.5 -81z" />
<glyph unicode="&#xc4;" horiz-adv-x="1617" d="M90 0l668 1444h102l668 -1444h-117l-182 401h-846l-182 -401h-111zM428 498h756l-377 829zM571 1567v164h142v-164h-142zM905 1567v164h142v-164h-142z" />
<glyph unicode="&#xc5;" horiz-adv-x="1617" d="M90 0l641 1389q-54 22 -88.5 70t-34.5 106q0 79 60.5 135.5t140.5 56.5t140.5 -56.5t60.5 -135.5q0 -58 -34.5 -106t-88.5 -70l641 -1389h-117l-182 401h-846l-182 -401h-111zM428 498h756l-377 829zM682 1565q0 -53 37 -90t90 -37t90 37t37 90t-37 90t-90 37t-90 -37 t-37 -90z" />
<glyph unicode="&#xc6;" horiz-adv-x="2140" d="M41 0l868 1434h1092v-99h-883v-563h791v-98h-791v-576h893v-98h-999v401h-615l-241 -401h-115zM455 498h557v839h-54z" />
<glyph unicode="&#xc7;" horiz-adv-x="1511" d="M150 715q0 122 34.5 234.5t99 204.5t151.5 160.5t198 106t233 37.5q179 0 306.5 -58t250.5 -171l-75 -78q-104 101 -219 156t-265 55q-127 0 -239 -49.5t-192 -135t-126.5 -204.5t-46.5 -254q0 -180 79.5 -328.5t219 -233.5t307.5 -85q149 0 264 55t230 168l72 -70 q-119 -118 -246.5 -181t-296.5 -69l-137 -278l-113 53l156 227q-185 17 -332.5 118.5t-230 264t-82.5 355.5z" />
<glyph unicode="&#xc8;" horiz-adv-x="1372" d="M213 0v1434h1020v-99h-914v-563h822v-98h-822v-576h924v-98h-1030zM496 1778l125 61l180 -272h-86z" />
<glyph unicode="&#xc9;" horiz-adv-x="1372" d="M213 0v1434h1020v-99h-914v-563h822v-98h-822v-576h924v-98h-1030zM633 1567l180 272l125 -61l-219 -211h-86z" />
<glyph unicode="&#xca;" horiz-adv-x="1372" d="M213 0v1434h1020v-99h-914v-563h822v-98h-822v-576h924v-98h-1030zM469 1567l205 250h82l205 -250h-97l-151 139l-152 -139h-92z" />
<glyph unicode="&#xcb;" horiz-adv-x="1372" d="M213 0v1434h1020v-99h-914v-563h822v-98h-822v-576h924v-98h-1030zM477 1567v164h141v-164h-141zM811 1567v164h141v-164h-141z" />
<glyph unicode="&#xcc;" horiz-adv-x="561" d="M14 1778l125 61l180 -272h-86zM227 0v1434h107v-1434h-107z" />
<glyph unicode="&#xcd;" horiz-adv-x="561" d="M227 0v1434h107v-1434h-107zM242 1567l180 272l125 -61l-219 -211h-86z" />
<glyph unicode="&#xce;" horiz-adv-x="561" d="M37 1567l205 250h82l204 -250h-96l-151 139l-152 -139h-92zM227 0v1434h107v-1434h-107z" />
<glyph unicode="&#xcf;" horiz-adv-x="561" d="M45 1567v164h141v-164h-141zM227 0v1434h107v-1434h-107zM379 1567v164h141v-164h-141z" />
<glyph unicode="&#xd0;" horiz-adv-x="1662" d="M121 672v98h153v664h478q221 0 395.5 -94t270 -256.5t95.5 -364.5q0 -151 -56 -283.5t-155 -228.5t-241.5 -151.5t-308.5 -55.5h-478v672h-153zM381 98h371q146 0 269.5 48t206.5 131.5t129 196t46 241.5t-46 242t-129 197t-206.5 132.5t-269.5 48.5h-371v-565h475v-98 h-475v-574z" />
<glyph unicode="&#xd1;" horiz-adv-x="1617" d="M213 0v1434h100l990 -1248v1248h102v-1434h-80l-1010 1274v-1274h-102zM506 1567q28 107 68 148.5t104 41.5q40 0 134 -42t128 -42q36 0 57 22t45 81l70 -19q-28 -107 -68 -148.5t-104 -41.5q-40 0 -134 42t-128 42q-36 0 -57.5 -22t-45.5 -81z" />
<glyph unicode="&#xd2;" horiz-adv-x="1740" d="M150 713v4q0 146 52.5 280.5t145 236.5t229.5 163t295 61q127 0 241 -39t200 -108t149.5 -161.5t96 -202t32.5 -226.5q2 -2 0 -4q0 -146 -52.5 -280.5t-145.5 -237t-230 -163.5t-295 -61t-294.5 60.5t-228 162t-143.5 235.5t-52 280zM260 717q0 -176 78.5 -323.5 t219.5 -234.5t314 -87q130 0 244 50.5t193.5 137t125.5 204.5t46 249v4q0 131 -46.5 250t-127 205.5t-195 138t-244.5 51.5q-173 0 -313 -86t-217.5 -232.5t-77.5 -322.5v-4zM598 1778l125 61l180 -272h-86z" />
<glyph unicode="&#xd3;" horiz-adv-x="1740" d="M150 713v4q0 146 52.5 280.5t145 236.5t229.5 163t295 61q127 0 241 -39t200 -108t149.5 -161.5t96 -202t32.5 -226.5q2 -2 0 -4q0 -146 -52.5 -280.5t-145.5 -237t-230 -163.5t-295 -61t-294.5 60.5t-228 162t-143.5 235.5t-52 280zM260 717q0 -176 78.5 -323.5 t219.5 -234.5t314 -87q130 0 244 50.5t193.5 137t125.5 204.5t46 249v4q0 131 -46.5 250t-127 205.5t-195 138t-244.5 51.5q-173 0 -313 -86t-217.5 -232.5t-77.5 -322.5v-4zM838 1567l180 272l125 -61l-219 -211h-86z" />
<glyph unicode="&#xd4;" horiz-adv-x="1740" d="M150 713v4q0 146 52.5 280.5t145 236.5t229.5 163t295 61q127 0 241 -39t200 -108t149.5 -161.5t96 -202t32.5 -226.5q2 -2 0 -4q0 -146 -52.5 -280.5t-145.5 -237t-230 -163.5t-295 -61t-294.5 60.5t-228 162t-143.5 235.5t-52 280zM260 717q0 -176 78.5 -323.5 t219.5 -234.5t314 -87q130 0 244 50.5t193.5 137t125.5 204.5t46 249v4q0 131 -46.5 250t-127 205.5t-195 138t-244.5 51.5q-173 0 -313 -86t-217.5 -232.5t-77.5 -322.5v-4zM625 1567l204 250h82l205 -250h-96l-152 139l-151 -139h-92z" />
<glyph unicode="&#xd5;" horiz-adv-x="1740" d="M150 713v4q0 146 52.5 280.5t145 236.5t229.5 163t295 61q127 0 241 -39t200 -108t149.5 -161.5t96 -202t32.5 -226.5q2 -2 0 -4q0 -146 -52.5 -280.5t-145.5 -237t-230 -163.5t-295 -61t-294.5 60.5t-228 162t-143.5 235.5t-52 280zM260 717q0 -176 78.5 -323.5 t219.5 -234.5t314 -87q130 0 244 50.5t193.5 137t125.5 204.5t46 249v4q0 131 -46.5 250t-127 205.5t-195 138t-244.5 51.5q-173 0 -313 -86t-217.5 -232.5t-77.5 -322.5v-4zM567 1567q28 107 68 148.5t104 41.5q40 0 134 -42t128 -42q36 0 57.5 22t45.5 81l70 -19 q-28 -107 -68.5 -148.5t-104.5 -41.5q-40 0 -134 42t-128 42q-36 0 -57 -22t-45 -81z" />
<glyph unicode="&#xd6;" horiz-adv-x="1740" d="M150 713v4q0 146 52.5 280.5t145 236.5t229.5 163t295 61q127 0 241 -39t200 -108t149.5 -161.5t96 -202t32.5 -226.5q2 -2 0 -4q0 -146 -52.5 -280.5t-145.5 -237t-230 -163.5t-295 -61t-294.5 60.5t-228 162t-143.5 235.5t-52 280zM260 717q0 -176 78.5 -323.5 t219.5 -234.5t314 -87q130 0 244 50.5t193.5 137t125.5 204.5t46 249v4q0 131 -46.5 250t-127 205.5t-195 138t-244.5 51.5q-173 0 -313 -86t-217.5 -232.5t-77.5 -322.5v-4zM633 1567v164h141v-164h-141zM967 1567v164h141v-164h-141z" />
<glyph unicode="&#xd8;" horiz-adv-x="1740" d="M133 -10l205 217q-91 101 -139.5 233t-48.5 275q0 147 52.5 282t145 237t229.5 163t295 61q273 0 467 -170l146 156h123l-205 -219q90 -99 139 -231t49 -275q0 -147 -52.5 -282t-145.5 -237.5t-230 -163.5t-295 -61q-273 0 -467 170l-145 -155h-123zM258 719 q0 -249 152 -434l862 925q-170 154 -404 154q-174 0 -314.5 -86.5t-218 -233.5t-77.5 -325zM469 223q169 -153 403 -153q174 0 315 86.5t218.5 233.5t77.5 325q0 249 -152 434z" />
<glyph unicode="&#xd9;" horiz-adv-x="1556" d="M190 596v838h107v-828q0 -252 128.5 -392t356.5 -140q223 0 350.5 134t127.5 388v838h106v-826q0 -302 -160 -466.5t-428 -164.5q-129 0 -237 41t-186 118t-121.5 194.5t-43.5 265.5zM524 1767l125 62l180 -273h-86z" />
<glyph unicode="&#xda;" horiz-adv-x="1556" d="M190 596v838h107v-828q0 -252 128.5 -392t356.5 -140q223 0 350.5 134t127.5 388v838h106v-826q0 -302 -160 -466.5t-428 -164.5q-129 0 -237 41t-186 118t-121.5 194.5t-43.5 265.5zM727 1556l180 273l125 -62l-219 -211h-86z" />
<glyph unicode="&#xdb;" horiz-adv-x="1556" d="M190 596v838h107v-828q0 -252 128.5 -392t356.5 -140q223 0 350.5 134t127.5 388v838h106v-826q0 -302 -160 -466.5t-428 -164.5q-129 0 -237 41t-186 118t-121.5 194.5t-43.5 265.5zM532 1556l205 250h82l205 -250h-96l-152 140l-151 -140h-93z" />
<glyph unicode="&#xdc;" horiz-adv-x="1556" d="M190 596v838h107v-828q0 -252 128.5 -392t356.5 -140q223 0 350.5 134t127.5 388v838h106v-826q0 -302 -160 -466.5t-428 -164.5q-129 0 -237 41t-186 118t-121.5 194.5t-43.5 265.5zM541 1556v164h141v-164h-141zM874 1556v164h142v-164h-142z" />
<glyph unicode="&#xdd;" horiz-adv-x="1466" d="M66 1434h133l536 -770l539 770h127l-615 -865v-569h-106v567zM696 1556l181 273l124 -62l-219 -211h-86z" />
<glyph unicode="&#xde;" horiz-adv-x="1378" d="M213 0v1434h106v-260h414q240 0 386.5 -117.5t146.5 -323.5q0 -110 -45 -199t-122.5 -145.5t-177.5 -86.5t-214 -30h-388v-272h-106zM319 371h394q200 0 323 97.5t123 258.5q0 168 -117.5 258t-316.5 90h-406v-704z" />
<glyph unicode="&#xdf;" horiz-adv-x="1269" d="M190 0v1024q0 216 123 350.5t328 134.5q182 0 295 -102.5t113 -257.5q0 -141 -93.5 -242t-228.5 -149q85 -15 156 -42.5t130.5 -71.5t93.5 -109t34 -146q0 -185 -147 -289t-402 -104v88q207 5 323.5 81.5t116.5 219.5q0 136 -115.5 214.5t-324.5 100.5v84 q348 106 348 361q0 119 -85 194.5t-220 75.5q-151 0 -247.5 -106.5t-96.5 -284.5v-1024h-101z" />
<glyph unicode="&#xe0;" horiz-adv-x="1175" d="M104 303v4q0 160 125.5 250t331.5 90q179 0 346 -45v45q0 156 -90.5 238t-253.5 82q-162 0 -327 -84l-37 88q195 90 370 90q205 0 321 -105.5t116 -304.5v-651h-99v174q-62 -86 -162 -142.5t-237 -56.5q-75 0 -146 21.5t-129 61t-93.5 103.5t-35.5 142zM211 309 q0 -110 88.5 -174.5t214.5 -64.5q163 0 279 90.5t116 230.5v119q-180 47 -354 47q-163 0 -253.5 -66.5t-90.5 -177.5v-4zM322 1430l124 61l181 -272h-86z" />
<glyph unicode="&#xe1;" horiz-adv-x="1175" d="M104 303v4q0 160 125.5 250t331.5 90q179 0 346 -45v45q0 156 -90.5 238t-253.5 82q-162 0 -327 -84l-37 88q195 90 370 90q205 0 321 -105.5t116 -304.5v-651h-99v174q-62 -86 -162 -142.5t-237 -56.5q-75 0 -146 21.5t-129 61t-93.5 103.5t-35.5 142zM211 309 q0 -110 88.5 -174.5t214.5 -64.5q163 0 279 90.5t116 230.5v119q-180 47 -354 47q-163 0 -253.5 -66.5t-90.5 -177.5v-4zM524 1219l181 272l124 -61l-219 -211h-86z" />
<glyph unicode="&#xe2;" horiz-adv-x="1175" d="M104 303v4q0 160 125.5 250t331.5 90q179 0 346 -45v45q0 156 -90.5 238t-253.5 82q-162 0 -327 -84l-37 88q195 90 370 90q205 0 321 -105.5t116 -304.5v-651h-99v174q-62 -86 -162 -142.5t-237 -56.5q-75 0 -146 21.5t-129 61t-93.5 103.5t-35.5 142zM211 309 q0 -110 88.5 -174.5t214.5 -64.5q163 0 279 90.5t116 230.5v119q-180 47 -354 47q-163 0 -253.5 -66.5t-90.5 -177.5v-4zM348 1219l205 249h82l205 -249h-97l-151 139l-152 -139h-92z" />
<glyph unicode="&#xe3;" horiz-adv-x="1175" d="M104 303v4q0 160 125.5 250t331.5 90q179 0 346 -45v45q0 156 -90.5 238t-253.5 82q-162 0 -327 -84l-37 88q195 90 370 90q205 0 321 -105.5t116 -304.5v-651h-99v174q-62 -86 -162 -142.5t-237 -56.5q-75 0 -146 21.5t-129 61t-93.5 103.5t-35.5 142zM211 309 q0 -110 88.5 -174.5t214.5 -64.5q163 0 279 90.5t116 230.5v119q-180 47 -354 47q-163 0 -253.5 -66.5t-90.5 -177.5v-4zM291 1219q28 107 68 148.5t104 41.5q40 0 134 -42t128 -42q36 0 57 21.5t45 80.5l70 -18q-28 -107 -68 -148.5t-104 -41.5q-40 0 -134 42t-128 42 q-36 0 -57.5 -22t-45.5 -81z" />
<glyph unicode="&#xe4;" horiz-adv-x="1175" d="M104 303v4q0 160 125.5 250t331.5 90q179 0 346 -45v45q0 156 -90.5 238t-253.5 82q-162 0 -327 -84l-37 88q195 90 370 90q205 0 321 -105.5t116 -304.5v-651h-99v174q-62 -86 -162 -142.5t-237 -56.5q-75 0 -146 21.5t-129 61t-93.5 103.5t-35.5 142zM211 309 q0 -110 88.5 -174.5t214.5 -64.5q163 0 279 90.5t116 230.5v119q-180 47 -354 47q-163 0 -253.5 -66.5t-90.5 -177.5v-4zM356 1219v163h142v-163h-142zM690 1219v163h141v-163h-141z" />
<glyph unicode="&#xe5;" horiz-adv-x="1175" d="M104 303v4q0 160 125.5 250t331.5 90q179 0 346 -45v45q0 156 -90.5 238t-253.5 82q-162 0 -327 -84l-37 88q195 90 370 90q205 0 321 -105.5t116 -304.5v-651h-99v174q-62 -86 -162 -142.5t-237 -56.5q-75 0 -146 21.5t-129 61t-93.5 103.5t-35.5 142zM211 309 q0 -110 88.5 -174.5t214.5 -64.5q163 0 279 90.5t116 230.5v119q-180 47 -354 47q-163 0 -253.5 -66.5t-90.5 -177.5v-4zM393 1407q0 79 60.5 135.5t140.5 56.5t140.5 -56.5t60.5 -135.5t-60.5 -136t-140.5 -57t-140.5 57t-60.5 136zM467 1407q0 -53 37.5 -90t89.5 -37 t89.5 37t37.5 90t-37.5 90t-89.5 37t-89.5 -37t-37.5 -90z" />
<glyph unicode="&#xe6;" horiz-adv-x="1953" d="M104 305q0 161 123 251.5t324 90.5q161 0 328 -45v45q0 157 -86 238.5t-244 81.5q-148 0 -313 -84l-37 88q97 46 178 68t178 22q157 0 258.5 -66.5t136.5 -195.5q63 124 174.5 197t247.5 73q143 0 253 -72.5t168 -197t58 -279.5q0 -23 -2 -39h-866q13 -188 132 -299.5 t278 -111.5q206 0 358 163l70 -61q-88 -95 -189.5 -146t-242.5 -51q-129 0 -241 61.5t-181 168.5q-201 -230 -469 -230q-74 0 -143.5 21.5t-126 61t-90.5 104t-34 143.5zM211 311q0 -112 84 -176.5t209 -64.5q243 0 418 219q-42 106 -45 223q-198 45 -332 45 q-159 0 -246.5 -67t-87.5 -179zM983 571h760q-5 81 -31 152.5t-71 129t-115.5 91t-157.5 33.5q-154 0 -262.5 -116t-122.5 -290z" />
<glyph unicode="&#xe7;" horiz-adv-x="1169" d="M119 520q0 146 70 272t193 201.5t269 75.5q135 0 233.5 -51.5t184.5 -140.5l-72 -74q-80 82 -160.5 127t-187.5 45q-178 0 -300 -131t-122 -320q0 -190 125 -322t305 -132q195 0 351 174l69 -62q-84 -94 -180 -147.5t-221 -59.5l-137 -278l-113 53l156 230 q-131 17 -237 94t-166 194.5t-60 251.5z" />
<glyph unicode="&#xe8;" horiz-adv-x="1196" d="M119 520v4q0 112 38 212.5t103 173.5t157.5 116t196.5 43q143 0 253.5 -72.5t168.5 -196.5t58 -278v-4q0 -21 -2 -37h-867q13 -188 131.5 -299.5t278.5 -111.5q206 0 358 163l70 -61q-88 -95 -189.5 -146t-242.5 -51q-102 0 -195.5 40t-163.5 110t-111.5 173t-41.5 222z M225 571h760q-5 81 -31 152.5t-71 129t-115.5 91t-157.5 33.5q-154 0 -262.5 -116t-122.5 -290zM367 1430l125 61l180 -272h-86z" />
<glyph unicode="&#xe9;" horiz-adv-x="1196" d="M119 520v4q0 112 38 212.5t103 173.5t157.5 116t196.5 43q143 0 253.5 -72.5t168.5 -196.5t58 -278v-4q0 -21 -2 -37h-867q13 -188 131.5 -299.5t278.5 -111.5q206 0 358 163l70 -61q-88 -95 -189.5 -146t-242.5 -51q-102 0 -195.5 40t-163.5 110t-111.5 173t-41.5 222z M225 571h760q-5 81 -31 152.5t-71 129t-115.5 91t-157.5 33.5q-154 0 -262.5 -116t-122.5 -290zM526 1219l181 272l124 -61l-219 -211h-86z" />
<glyph unicode="&#xea;" horiz-adv-x="1196" d="M119 520v4q0 112 38 212.5t103 173.5t157.5 116t196.5 43q143 0 253.5 -72.5t168.5 -196.5t58 -278v-4q0 -21 -2 -37h-867q13 -188 131.5 -299.5t278.5 -111.5q206 0 358 163l70 -61q-88 -95 -189.5 -146t-242.5 -51q-102 0 -195.5 40t-163.5 110t-111.5 173t-41.5 222z M225 571h760q-5 81 -31 152.5t-71 129t-115.5 91t-157.5 33.5q-154 0 -262.5 -116t-122.5 -290zM362 1219l205 249h82l205 -249h-96l-152 139l-151 -139h-93z" />
<glyph unicode="&#xeb;" horiz-adv-x="1196" d="M119 520v4q0 112 38 212.5t103 173.5t157.5 116t196.5 43q143 0 253.5 -72.5t168.5 -196.5t58 -278v-4q0 -21 -2 -37h-867q13 -188 131.5 -299.5t278.5 -111.5q206 0 358 163l70 -61q-88 -95 -189.5 -146t-242.5 -51q-102 0 -195.5 40t-163.5 110t-111.5 173t-41.5 222z M225 571h760q-5 81 -31 152.5t-71 129t-115.5 91t-157.5 33.5q-154 0 -262.5 -116t-122.5 -290zM371 1219v163h141v-163h-141zM705 1219v163h141v-163h-141z" />
<glyph unicode="&#xec;" horiz-adv-x="509" d="M-10 1430l125 61l180 -272h-86zM205 0v1044h100v-1044h-100z" />
<glyph unicode="&#xed;" horiz-adv-x="509" d="M205 0v1044h100v-1044h-100zM215 1219l180 272l125 -61l-219 -211h-86z" />
<glyph unicode="&#xee;" horiz-adv-x="509" d="M8 1219l205 249h82l205 -249h-97l-151 139l-152 -139h-92zM205 0v1044h100v-1044h-100z" />
<glyph unicode="&#xef;" horiz-adv-x="509" d="M16 1219v163h142v-163h-142zM205 0v1044h100v-1044h-100zM350 1219v163h142v-163h-142z" />
<glyph unicode="&#xf0;" horiz-adv-x="1286" d="M119 500q0 108 40.5 202t108 157.5t157 99.5t185.5 36q114 0 199.5 -34t163.5 -95l-301 426l-273 -139l-59 74l281 137l-93 131h129l56 -84l200 102l58 -73l-209 -103l223 -329q90 -136 134 -249t44 -251q0 -106 -38 -202.5t-105.5 -170t-168 -117t-218.5 -43.5 q-144 0 -263 72t-185 192.5t-66 260.5zM227 494q0 -109 52.5 -206t149.5 -157.5t214 -60.5q119 0 214.5 60t146.5 157t51 211q0 168 -125 287.5t-307 119.5q-179 0 -287.5 -117t-108.5 -294z" />
<glyph unicode="&#xf1;" horiz-adv-x="1255" d="M190 0v1044h101v-194q125 219 377 219q194 0 305.5 -119t111.5 -311v-639h-100v621q0 163 -88 259.5t-244 96.5q-155 0 -258.5 -105.5t-103.5 -267.5v-604h-101zM334 1219q28 107 68 148.5t104 41.5q40 0 134 -42t128 -42q36 0 57 21.5t45 80.5l70 -18 q-28 -107 -68 -148.5t-104 -41.5q-40 0 -134 42t-128 42q-36 0 -57.5 -22t-45.5 -81z" />
<glyph unicode="&#xf2;" d="M119 518v4q0 109 41 209t111 174.5t171 119t215 44.5q151 0 274.5 -74.5t192 -198.5t68.5 -270v-4q0 -146 -69 -271t-193.5 -200.5t-276.5 -75.5q-113 0 -213 44t-170 117.5t-110.5 173t-40.5 208.5zM227 522q0 -189 124.5 -320.5t305.5 -131.5q121 0 219.5 60.5 t152.5 163t54 224.5v4q0 190 -124.5 321.5t-305.5 131.5q-183 0 -304.5 -131t-121.5 -318v-4zM391 1430l125 61l180 -272h-86z" />
<glyph unicode="&#xf3;" d="M119 518v4q0 109 41 209t111 174.5t171 119t215 44.5q151 0 274.5 -74.5t192 -198.5t68.5 -270v-4q0 -146 -69 -271t-193.5 -200.5t-276.5 -75.5q-113 0 -213 44t-170 117.5t-110.5 173t-40.5 208.5zM227 522q0 -189 124.5 -320.5t305.5 -131.5q121 0 219.5 60.5 t152.5 163t54 224.5v4q0 190 -124.5 321.5t-305.5 131.5q-183 0 -304.5 -131t-121.5 -318v-4zM614 1219l181 272l125 -61l-220 -211h-86z" />
<glyph unicode="&#xf4;" d="M119 518v4q0 109 41 209t111 174.5t171 119t215 44.5q151 0 274.5 -74.5t192 -198.5t68.5 -270v-4q0 -146 -69 -271t-193.5 -200.5t-276.5 -75.5q-113 0 -213 44t-170 117.5t-110.5 173t-40.5 208.5zM227 522q0 -189 124.5 -320.5t305.5 -131.5q121 0 219.5 60.5 t152.5 163t54 224.5v4q0 190 -124.5 321.5t-305.5 131.5q-183 0 -304.5 -131t-121.5 -318v-4zM410 1219l204 249h82l205 -249h-96l-152 139l-151 -139h-92z" />
<glyph unicode="&#xf5;" d="M119 518v4q0 109 41 209t111 174.5t171 119t215 44.5q151 0 274.5 -74.5t192 -198.5t68.5 -270v-4q0 -146 -69 -271t-193.5 -200.5t-276.5 -75.5q-113 0 -213 44t-170 117.5t-110.5 173t-40.5 208.5zM227 522q0 -189 124.5 -320.5t305.5 -131.5q121 0 219.5 60.5 t152.5 163t54 224.5v4q0 190 -124.5 321.5t-305.5 131.5q-183 0 -304.5 -131t-121.5 -318v-4zM352 1219q28 107 68 148.5t104 41.5q40 0 134 -42t128 -42q36 0 58 21.5t45 80.5l69 -18q-28 -107 -68 -148.5t-104 -41.5q-40 0 -134 42t-128 42q-36 0 -57 -22t-45 -81z" />
<glyph unicode="&#xf6;" d="M119 518v4q0 109 41 209t111 174.5t171 119t215 44.5q151 0 274.5 -74.5t192 -198.5t68.5 -270v-4q0 -146 -69 -271t-193.5 -200.5t-276.5 -75.5q-113 0 -213 44t-170 117.5t-110.5 173t-40.5 208.5zM227 522q0 -189 124.5 -320.5t305.5 -131.5q121 0 219.5 60.5 t152.5 163t54 224.5v4q0 190 -124.5 321.5t-305.5 131.5q-183 0 -304.5 -131t-121.5 -318v-4zM418 1219v163h141v-163h-141zM752 1219v163h141v-163h-141z" />
<glyph unicode="&#xf8;" d="M88 -10l162 168q-131 157 -131 362q0 147 69 272.5t193 201t276 75.5q198 0 342 -125l107 115h117l-164 -172q133 -152 133 -363q0 -147 -69 -272.5t-193.5 -201t-276.5 -75.5q-196 0 -342 123l-106 -108h-117zM225 524q0 -166 97 -293l614 637q-122 109 -283 109 q-186 0 -307 -130.5t-121 -322.5zM375 174q118 -106 282 -106q186 0 307 130t121 322q0 168 -98 293z" />
<glyph unicode="&#xf9;" horiz-adv-x="1255" d="M170 406v638h100v-620q0 -163 88 -259.5t244 -96.5q155 0 259 105t104 267v604h100v-1044h-100v195q-125 -220 -377 -220q-194 0 -306 119.5t-112 311.5zM373 1419l125 62l180 -273h-86z" />
<glyph unicode="&#xfa;" horiz-adv-x="1255" d="M170 406v638h100v-620q0 -163 88 -259.5t244 -96.5q155 0 259 105t104 267v604h100v-1044h-100v195q-125 -220 -377 -220q-194 0 -306 119.5t-112 311.5zM567 1208l181 273l124 -62l-219 -211h-86z" />
<glyph unicode="&#xfb;" horiz-adv-x="1255" d="M170 406v638h100v-620q0 -163 88 -259.5t244 -96.5q155 0 259 105t104 267v604h100v-1044h-100v195q-125 -220 -377 -220q-194 0 -306 119.5t-112 311.5zM385 1219l205 249h82l205 -249h-97l-151 139l-152 -139h-92z" />
<glyph unicode="&#xfc;" horiz-adv-x="1255" d="M170 406v638h100v-620q0 -163 88 -259.5t244 -96.5q155 0 259 105t104 267v604h100v-1044h-100v195q-125 -220 -377 -220q-194 0 -306 119.5t-112 311.5zM393 1219v163h142v-163h-142zM727 1219v163h141v-163h-141z" />
<glyph unicode="&#xfd;" horiz-adv-x="1204" d="M80 1044h117l434 -933l377 933h110l-452 -1081q-67 -160 -150 -228.5t-199 -68.5q-104 0 -206 45l34 88q79 -39 179 -39q83 0 141.5 55.5t116.5 190.5zM575 1208l181 273l125 -62l-219 -211h-87z" />
<glyph unicode="&#xfe;" horiz-adv-x="1351" d="M190 -328v1823h101v-684q169 258 430 258q95 0 185.5 -38t162.5 -105.5t116 -172.5t44 -229t-44 -229.5t-116 -174t-162.5 -107t-185.5 -38.5q-266 0 -430 250v-553h-101zM285 522q0 -130 61.5 -235t158.5 -160t206 -55q176 0 292.5 121t116.5 327q0 201 -119.5 327 t-289.5 126q-109 0 -206 -56t-158.5 -161t-61.5 -234z" />
<glyph unicode="&#xff;" horiz-adv-x="1204" d="M80 1044h117l434 -933l377 933h110l-452 -1081q-67 -160 -150 -228.5t-199 -68.5q-104 0 -206 45l34 88q79 -39 179 -39q83 0 141.5 55.5t116.5 190.5zM365 1219v163h141v-163h-141zM698 1219v163h142v-163h-142z" />
<glyph unicode="&#x152;" horiz-adv-x="2359" d="M150 715q0 151 56 283.5t155 228.5t241.5 151.5t308.5 55.5h1309v-99h-883v-563h791v-98h-791v-576h893v-98h-1319q-221 0 -395.5 94t-270 256.5t-95.5 364.5zM260 719q0 -103 29 -196.5t85.5 -170.5t134.5 -134t181.5 -88.5t220.5 -31.5h320v1237h-320 q-146 0 -269.5 -48t-206.5 -131t-129 -195.5t-46 -241.5z" />
<glyph unicode="&#x153;" horiz-adv-x="2160" d="M119 520q0 146 69 272t193 201.5t274 75.5q162 0 290 -88t190 -231q58 145 176.5 232t269.5 87q142 0 251.5 -72.5t167.5 -197t58 -279.5q0 -23 -2 -39h-866q13 -188 131.5 -299.5t277.5 -111.5q207 0 359 163l70 -61q-88 -95 -189.5 -146t-239.5 -51q-153 0 -278.5 86.5 t-185.5 235.5q-62 -144 -191.5 -233t-292.5 -89q-149 0 -272 74.5t-191.5 199.5t-68.5 271zM227 524q0 -191 124.5 -322.5t305.5 -131.5q184 0 305 129.5t121 320.5t-124.5 323t-305.5 132q-184 0 -305 -130t-121 -321zM1190 571h760q-5 81 -31 152.5t-71 129t-115.5 91 t-157.5 33.5q-154 0 -262.5 -116t-122.5 -290z" />
<glyph unicode="&#x178;" horiz-adv-x="1466" d="M66 1434h133l536 -770l539 770h127l-615 -865v-569h-106v567zM496 1556v164h141v-164h-141zM829 1556v164h142v-164h-142z" />
<glyph unicode="&#x2c6;" horiz-adv-x="1024" d="M266 1219l205 249h82l205 -249h-96l-152 139l-152 -139h-92z" />
<glyph unicode="&#x2dc;" horiz-adv-x="1024" d="M209 1219q28 107 68 148.5t104 41.5q40 0 134 -42t128 -42q36 0 57 21.5t45 80.5l70 -18q-28 -107 -68 -148.5t-104 -41.5q-40 0 -134 42t-128 42q-36 0 -57 -22t-45 -81z" />
<glyph unicode="&#x2000;" horiz-adv-x="919" />
<glyph unicode="&#x2001;" horiz-adv-x="1839" />
<glyph unicode="&#x2002;" horiz-adv-x="919" />
<glyph unicode="&#x2003;" horiz-adv-x="1839" />
<glyph unicode="&#x2004;" horiz-adv-x="613" />
<glyph unicode="&#x2005;" horiz-adv-x="459" />
<glyph unicode="&#x2006;" horiz-adv-x="306" />
<glyph unicode="&#x2007;" horiz-adv-x="306" />
<glyph unicode="&#x2008;" horiz-adv-x="229" />
<glyph unicode="&#x2009;" horiz-adv-x="367" />
<glyph unicode="&#x200a;" horiz-adv-x="102" />
<glyph unicode="&#x2010;" horiz-adv-x="835" d="M143 551v115h549v-115h-549z" />
<glyph unicode="&#x2011;" horiz-adv-x="835" d="M143 551v115h549v-115h-549z" />
<glyph unicode="&#x2012;" horiz-adv-x="835" d="M143 551v115h549v-115h-549z" />
<glyph unicode="&#x2013;" horiz-adv-x="1081" d="M143 555v107h795v-107h-795z" />
<glyph unicode="&#x2014;" horiz-adv-x="1839" d="M143 555v107h1553v-107h-1553z" />
<glyph unicode="&#x2018;" horiz-adv-x="471" d="M158 1051v151q0 95 39 151t131 91l24 -51q-66 -34 -92 -72t-22 -96h55v-174h-135z" />
<glyph unicode="&#x2019;" horiz-adv-x="471" d="M119 1092q66 34 92 72t22 96h-55v174h135v-152q0 -95 -39 -151t-131 -91z" />
<glyph unicode="&#x201a;" horiz-adv-x="471" d="M109 -168q66 34 92 72t22 96h-55v174h135v-151q0 -95 -39 -151t-131 -91z" />
<glyph unicode="&#x201c;" horiz-adv-x="839" d="M158 1051v151q0 95 39 151t131 91l24 -51q-66 -34 -92 -72t-22 -96h55v-174h-135zM526 1051v151q0 95 39 151t131 91l25 -51q-67 -34 -93 -72t-22 -96h56v-174h-136z" />
<glyph unicode="&#x201d;" horiz-adv-x="839" d="M119 1092q66 34 92 72t22 96h-55v174h135v-152q0 -95 -39 -151t-131 -91zM487 1092q67 34 93 72t22 96h-55v174h135v-152q0 -95 -39 -151t-131 -91z" />
<glyph unicode="&#x201e;" horiz-adv-x="839" d="M109 -168q66 34 92 72t22 96h-55v174h135v-151q0 -95 -39 -151t-131 -91zM477 -168q67 34 93 72t22 96h-55v174h135v-151q0 -95 -39 -151t-131 -91z" />
<glyph unicode="&#x2022;" horiz-adv-x="962" d="M227 721q0 104 75 179t179 75t179 -75t75 -179t-75 -179t-179 -75t-179 75t-75 179z" />
<glyph unicode="&#x2026;" horiz-adv-x="1392" d="M168 0v170h131v-170h-131zM631 0v170h131v-170h-131zM1094 0v170h131v-170h-131z" />
<glyph unicode="&#x202f;" horiz-adv-x="367" />
<glyph unicode="&#x2039;" horiz-adv-x="636" d="M104 514v16l328 428l76 -49l-281 -385l281 -389l-76 -49z" />
<glyph unicode="&#x203a;" horiz-adv-x="636" d="M129 135l281 385l-281 389l76 49l327 -428v-16l-327 -428z" />
<glyph unicode="&#x205f;" horiz-adv-x="459" />
<glyph unicode="&#x2122;" horiz-adv-x="1413" d="M53 1364v70h486v-70h-207v-561h-72v561h-207zM682 803v631h76l246 -375l245 375h74v-631h-72v504l-243 -365h-11l-243 365v-504h-72z" />
<glyph unicode="&#x25fc;" horiz-adv-x="1044" d="M0 0v1044h1044v-1044h-1044z" />
<glyph unicode="&#xfb01;" horiz-adv-x="1251" d="M100 952v92h152v103q0 169 81.5 261.5t229.5 92.5q85 0 156 -24v-95q-89 27 -156 27q-107 0 -159 -65t-52 -199v-101h365v-92h-365v-952h-100v952h-152zM934 1317v137h125v-137h-125zM946 0v1044h101v-1044h-101z" />
<glyph unicode="&#xfb02;" horiz-adv-x="1251" d="M100 952v92h152v103q0 169 81.5 261.5t229.5 92.5q85 0 156 -24v-95q-89 27 -156 27q-107 0 -159 -65t-52 -199v-101h365v-92h-365v-952h-100v952h-152zM946 0v1495h101v-1495h-101z" />
</font>
</defs>
</svg>
